Lightmeter

Lightmeter


-can detect the environment lighting condition
-can automatically calculate the average value
-can set different total samples: 100/500/2000/4000
-support both lux and fc metrics

Recent changes:
-fix some bug
Add to list
Free
66
3.3
User ratings
6
Installs
500+
Concerns
0
File size
1596 kb
Screenshots
Screenshot of Lightmeter Screenshot of Lightmeter Screenshot of Lightmeter Screenshot of Lightmeter

About Lightmeter
-can detect the environment lighting condition
-can automatically calculate the average value
-can set different total samples: 100/500/2000/4000
-support both lux and fc metrics

Recent changes:
-fix some bug

Visit Website
User reviews of Lightmeter
Write the first review for this app!
Android Market Comments
No comments in the Android market yet